正版低速原抓 姚璎格首张粤语专辑《粤》【百度云/WAV】

跳转到指定楼层
声明:本音乐仅供内部欣赏试听,喜欢请购买正版以支持艺术家。
20180923003253615361.jpg

2018广州国际音响唱片展将于9月14日至16日在广州东方宾馆及中国大酒店举行。今年风林唱片好戏连连,首先是各位乐迷、格粉们期待已久的姚璎格《粤》首发,9月14日香港和内地同步上市发行,想“先听为快”的朋友千万别错过了。


专辑曲目:

01  "千枝针刺在心"
   
   02"梨涡浅笑"
   
   03 "石头记"
     
   04  "为你钟情"
     
   05  "不装饰你的梦"
   
   06 "每一步"
     
   07 "忘记他"
   
   08 "风雨同路"
   
   09 "似水流年"
     
   10  "随想曲"
   
   11 "无奈"
   
   12 "风继续吹"
   


Exact Audio Copy V1.0 beta 3 from 29. August 2011

EAC 抓取日志文件从20. 九月 2018, 11:13

姚璎格 / 粤

使用驱动器  :TEAC    CD-W540E   Adapter: 0  ID: 0

读取模式      : 可靠Secure
使用精确流     : 是
清空音频缓存    : 是
使用 C2 指示器 : 是

读取偏移校正:               : 686
读取 Lead-In 和 Lead-Out : 否
用静音填充抓取中丢失偏移的采样       : 是
去除首尾静音块               : 否
在CRC 计算中使用了空样本       : 是
已用接口                  : Win NT 及 2000 本地 Win32 接口

所用输出模式: : 内部 WAV 函数
样本格式    : 44.100 Hz; 16 Bit; 立体声


已抓取 CD 的 TOC

      音轨 |    起始    |    长度    |  起始扇区  |  结束扇区  
     --------------------------------------------
      1 |  0:00.00 |  3:41.53 |      0 |  16627
       2 |  3:41.53 |  4:10.34 |  16628 |  35411
       3 |  7:52.12 |  4:32.40 |  35412 |  55851
       4 | 12:24.52 |  4:05.12 |  55852 |  74238
       5 | 16:29.64 |  4:02.49 |  74239 |  92437
       6 | 20:32.38 |  4:20.70 |  92438 | 112007
       7 | 24:53.33 |  3:48.38 | 112008 | 129145
       8 | 28:41.71 |  3:15.53 | 129146 | 143823
       9 | 31:57.49 |  3:55.56 | 143824 | 161504
      10 | 35:53.30 |  3:39.31 | 161505 | 177960
      11 | 39:32.61 |  4:04.15 | 177961 | 196275
      12 | 43:37.01 |  5:36.55 | 196276 | 221530


范围状态及错误

已选择范围

     文件名 H:\无损音乐\自抓轨CD\姚璎格\姚璎格 《粤》\姚璎格 - 粤.wav

      峰值电平 99.6 %
      抓取速度 10.1 X
      范围质量 99.9 %
      复制 CRC 7FC24997
      复制成功

没有错误发生
游客,如果您要查看本帖隐藏内容请回复

1楼 2018-9-28 22:40:51 回复

使用道具 举报

难得的好音质,感谢分享,果断收藏!
2楼 2018-10-1 15:22:44 回复

使用道具 举报

谢谢分享
3楼 2018-11-20 10:35:23 回复

使用道具 举报

支持原版作者

4楼 2018-12-16 18:19:45 回复

使用道具 举报

感谢分享!!!!
5楼 2018-12-17 10:08:07 回复

使用道具 举报

收下了,谢谢分享
来自手机 
6楼 2018-12-28 10:51:12 回复

使用道具 举报

Thank You

7楼 2019-1-2 02:11:22 回复

使用道具 举报

好 找了好久
8楼 2019-1-3 13:09:48 回复

使用道具 举报

顶?dhdhdhdhdbhd
来自手机 
9楼 2019-1-6 22:31:51 回复

使用道具 举报

这人唱粤语歌曲挺 好听的,只是找不到。谢谢分享!
10楼 2019-1-8 21:24:12 回复

使用道具 举报

123下一页
您需要登录后才可以回帖 登录 | 立即注册

本版积分规则

快速回复 返回顶部 返回列表